Cute Cartoon Jump Sound Effect

Cute Cartoon Jump Sound Effect

Author: 
Art Type: 
License(s): 
Favorites: 
14
Share Icons: 
Preview: 

Jump sound for platformers and jup and runs. Made by editing a Jew's Harp sound recorded by cfork in Audacity.

Also available at http://freesound.org/people/qubodup/sounds/172660/.

Input File     : 'qubodup-cfork-ccby3-jump.flac'

Channels       : 1

Sample Rate    : 48000

Precision      : 16-bit

Duration       : 00:00:00.39 = 18647 samples ~ 29.1359 CDDA sectors

File Size      : 21.3k

Bit Rate       : 438k

Sample Encoding: 16-bit FLAC

REQUIRES ATTRIBUTION WHEN USED

Attribution Instructions: 
Boing Raw Copyright 2005 cfork <http://freesound.org/people/cfork/> Boing Jump Copyright 2012 Iwan Gabovitch <http://qubodup.net>
File(s): 
qubodup-cfork-ccby3-jump.ogg qubodup-cfork-ccby3-jump.ogg 7.9 Kb [5080 download(s)]
qubodup-cfork-ccby3-jump.flac qubodup-cfork-ccby3-jump.flac 21.3 Kb [1451 download(s)]