Car Engine Loop 96kHz, 4s

Car Engine Loop 96kHz, 4s

Author: 
Art Type: 
Favorites: 
14
Share Icons: 
Preview: 

I recorded a few car engine sounds and processed them to have a engine loop for Trigger.

soxi says:

Input File     : 'motor-loop-1-normalized.wav'

Channels       : 2

Sample Rate    : 44100

Precision      : 16-bit

Duration       : 00:00:04.00 = 176400 samples = 300 CDDA sectors

File Size      : 706k

Bit Rate       : 1.41M

Sample Encoding: 16-bit Signed Integer PCM

 

 

Input File     : 'motor-loop-1.wav'

Channels       : 2

Sample Rate    : 96000

Precision      : 24-bit

Duration       : 00:00:04.00 = 384000 samples ~ 300 CDDA sectors

File Size      : 2.30M

Bit Rate       : 4.61M

Sample Encoding: 24-bit Signed Integer PCM

File(s): 
engine-loop.7z engine-loop.7z 2.7 Mb [5485 download(s)]